<?xml version="1.0" standalone="no"?>
<!DOCTYPE svg PUBLIC "-//W3C//DTD SVG 1.1//EN" "http://www.w3.org/Graphics/SVG/1.1/DTD/svg11.dtd" >
<svg xmlns="http://www.w3.org/2000/svg">
<defs>
  <font id="icons" horiz-adv-x="2117.818181818182">
    <font-face font-family="icons"
      units-per-em="1792" ascent="1536"
      descent="256" />
    <missing-glyph horiz-adv-x="0" />
    <glyph glyph-name="arrow-left"
      unicode="&#xEA01;"
      horiz-adv-x="1500" d="M662.556 1107.583C686.755 1131.781 686.768 1174.144 662.556 1198.355C638.359 1222.556 595.993 1222.556 571.784 1198.355L60.416 686.989L60.416 686.989C36.219 662.777 36.219 620.4150000000001 60.416 596.217L568.755 81.8209999999999C592.965 57.6099999999999 635.329 57.6099999999999 659.54 81.8209999999999L659.54 81.8209999999999C683.752 106.0259999999998 683.752 148.3899999999999 659.54 172.6009999999999L263.159 575.021L1399.185 578.0569999999999C1435.49 578.0569999999999 1462.724 605.286 1462.724 641.5959999999999C1462.7169999999999 677.9009999999998 1435.49 705.1429999999999 1399.1779999999999 705.1429999999999L260.1299999999999 705.1429999999999L662.556 1107.583L662.556 1107.583z" />
    <glyph glyph-name="arrow-right-light"
      unicode="&#xEA02;"
      horiz-adv-x="1850.4314746674213" d="M1805.289102745542 640.0507217662041C1805.289102745542 606.675799603736 1791.9999999999998 574.7210868949899 1768.4651004811774 551.1861873761674L1139.8195301443532 -77.4593829606567C1090.7208604585335 -126.5580526464762 1011.0876875176903 -126.5580526464762 961.9890178318708 -77.4593829606567C912.8903481460515 -28.3607132748373 912.8903481460515 51.2724596660062 961.9890178318708 100.3711293518254L1375.9800735918482 514.3621851118028H170.8309085762808C101.4435324087178 514.3621851118028 45.1423719218794 570.6633455986412 45.1423719218794 640.0507217662041S101.4435324087178 765.7392584206054 170.8309085762808 765.7392584206054H1376.0815171242568L961.9890178318708 1179.7303141805828C912.8903481460515 1228.8289838664023 912.8903481460515 1308.4621568072457 961.9890178318708 1357.5608264930652C1011.0876875176903 1406.6594961788846 1090.7208604585337 1406.6594961788846 1139.8195301443532 1357.5608264930652L1768.4651004811774 728.915256156241C1792.1014435324084 705.3803566374185 1805.289102745542 673.3242003962637 1805.289102745542 640.0507217662041z" />
    <glyph glyph-name="arrow-right"
      unicode="&#xEA03;"
      horiz-adv-x="1500" d="M839.399 172.587C815.2 148.3889999999999 815.187 106.0260000000001 839.399 81.8150000000001C863.596 57.614 905.962 57.614 930.171 81.8150000000001L1441.539 593.181L1441.539 593.181C1465.7359999999999 617.393 1465.7359999999999 659.755 1441.539 683.9530000000001L933.201 1198.349C908.991 1222.56 866.6270000000001 1222.56 842.416 1198.349L842.416 1198.349C818.2040000000001 1174.144 818.2040000000001 1131.78 842.416 1107.569L1238.797 705.1479999999999L102.771 702.112C66.466 702.112 39.232 674.8829999999999 39.232 638.573C39.238 602.268 66.466 575.026 102.777 575.026H1241.826L839.399 172.587L839.399 172.587z" />
    <glyph glyph-name="bar"
      unicode="&#xEA04;"
      horiz-adv-x="393.1951316161902" d="M214.3501839796207 1138.4427964902347V-175.859609397113H178.8449476365695V1138.4427964902347C99.1103311633173 1147.369827342202 36.9254457967733 1214.221115199547 36.9254457967733 1296.2889329181996C36.9254457967733 1384.4433625813754 108.4431361449193 1455.9610529295214 196.5975658080951 1455.9610529295214C284.7519954712709 1455.9610529295214 356.269685819417 1384.4433625813754 356.269685819417 1296.2889329181996C356.1682422870082 1214.221115199547 293.9833569204642 1147.369827342202 214.3501839796207 1138.4427964902347z" />
    <glyph glyph-name="book"
      unicode="&#xEA05;"
      horiz-adv-x="1930.7747523351259" d="M1821.012850268893 1240.5964336258135C1700.0921596377013 1320.939711293518 1540.4200396263798 1367.8066232663457 1368.371808661194 1367.8066232663457C1218.9454854231528 1367.8066232663457 1078.8519671667138 1332.504273988112 965.3366544013584 1270.5222756863852C851.8213416360032 1332.504273988112 711.7278233795639 1367.8066232663457 562.3015001415228 1367.8066232663457C390.3547127087461 1367.8066232663457 230.6825926974243 1320.939711293518 109.7619020662326 1240.5964336258135C84.806793093688 1223.9596943107838 69.7931502971978 1195.9612793659778 69.7931502971978 1166.035437305406V1.7680158505518C69.7931502971978 -31.2011321822815 87.9515425983583 -61.5327483724882 117.0658363996603 -77.1550523634307C146.1801302009623 -92.7773563543733 181.4824794791961 -91.0528163034251 208.9736767619586 -72.7929804698558C297.2295499575431 -14.158618737617 421.5993206906311 24.3899235776958 562.4029436739313 24.3899235776958C703.3080101896403 24.3899235776958 827.5763373903196 -14.158618737617 915.8322105859042 -72.7929804698558C945.8594961788846 -92.7773563543733 984.915256156241 -92.7773563543733 1014.9425417492214 -72.7929804698558C1103.198414944806 -14.158618737617 1227.568185677894 24.3899235776958 1368.371808661194 24.3899235776958C1509.2768751769033 24.3899235776958 1633.5452023775824 -14.158618737617 1721.8010755731668 -72.7929804698558C1749.2922728559292 -91.0528163034251 1784.5946221341633 -92.7773563543733 1813.7089159354653 -77.1550523634307C1842.8232097367672 -61.532748372488 1860.9816020379276 -31.2011321822815 1860.9816020379276 1.7680158505518V1166.035437305406C1860.981602037928 1196.0627228983865 1845.9679592414377 1224.0611378431927 1821.012850268893 1240.5964336258135zM875.7620152844606 147.4409283894706C781.4195301443532 183.554825926974 674.4980469855647 203.5392018114915 562.3015001415228 203.5392018114915S343.1834701386923 183.6562694593829 248.8409849985847 147.4409283894706V1115.313671101047C332.9376733654118 1160.3545994905178 441.5836965751485 1188.65734503255 562.3015001415228 1188.65734503255S791.6653269176337 1160.3545994905178 875.7620152844606 1115.313671101047V147.4409283894706zM1681.8323238041323 147.4409283894706C1587.4898386640248 183.554825926974 1480.5683555052362 203.5392018114915 1368.3718086611943 203.5392018114915C1256.1752618171527 203.5392018114915 1149.253778658364 183.6562694593829 1054.9112935182563 147.4409283894706V1115.313671101047C1139.0079818850836 1160.3545994905178 1247.6540050948204 1188.65734503255 1368.3718086611943 1188.65734503255C1489.0896122275685 1188.65734503255 1597.7356354373053 1160.3545994905178 1681.8323238041323 1115.313671101047V147.4409283894706z" />
    <glyph glyph-name="building"
      unicode="&#xEA06;"
      horiz-adv-x="1670.9778658363996" d="M207.1476931786018 1189.773223889046C207.1476931786018 1319.925275969431 312.6489668836682 1425.4265496744974 442.8010189640532 1425.4265496744974H1228.1768468723465C1358.3288989527314 1425.4265496744974 1463.830172657798 1319.925275969431 1463.830172657798 1189.773223889046V11.6080384941974H1542.3474667421456C1585.7652986130765 11.6080384941974 1620.8647608264932 -23.5928672516277 1620.8647608264932 -66.9092555901502C1620.8647608264932 -110.3270874610814 1585.663855080668 -145.4265496744979 1542.3474667421456 -145.4265496744979H128.6303990942542C85.212567223323 -145.4265496744979 50.1131050099066 -110.2256439286727 50.1131050099066 -66.9092555901502C50.1131050099066 -23.491423719219 85.3140107557317 11.6080384941974 128.6303990942542 11.6080384941974H207.1476931786018V1189.773223889046zM364.1822813472969 11.7094820266063H599.8356071327482V325.8801018964052C599.8356071327482 412.614322105859 670.1359750919896 482.9146900651003 756.8701953014433 482.9146900651003H914.0062270025473C1000.740447212001 482.9146900651003 1071.0408151712425 412.614322105859 1071.0408151712425 325.8801018964052V11.7094820266063H1306.694140956694V1189.773223889046C1306.694140956694 1233.1910557599772 1271.4932352108688 1268.2905179733934 1228.1768468723462 1268.2905179733934H442.8010189640532C399.383187093122 1268.2905179733934 364.2837248797057 1233.0896122275685 364.2837248797057 1189.773223889046V11.7094820266063zM914.0062270025473 11.7094820266063V325.8801018964052H756.9716388338522V11.7094820266063H914.0062270025473zM521.3183130484007 1032.7386357203509C521.3183130484007 1076.1564675912819 556.5192187942258 1111.2559298046983 599.8356071327482 1111.2559298046983H678.3529012170958C721.770733088027 1111.2559298046983 756.8701953014433 1076.0550240588732 756.8701953014433 1032.7386357203509C756.8701953014433 989.3208038494196 721.6692895556182 954.2213416360032 678.3529012170958 954.2213416360032H599.8356071327482C556.5192187942258 954.1198981035944 521.3183130484007 989.3208038494196 521.3183130484007 1032.7386357203509zM914.0062270025473 1032.7386357203509C914.0062270025473 1076.1564675912819 949.2071327483724 1111.2559298046983 992.523521086895 1111.2559298046983H1071.0408151712425C1114.4586470421737 1111.2559298046983 1149.5581092555901 1076.0550240588732 1149.5581092555901 1032.7386357203509C1149.5581092555901 989.3208038494196 1114.357203509765 954.2213416360032 1071.0408151712425 954.2213416360032H992.523521086895C949.2071327483724 954.1198981035944 914.0062270025473 989.3208038494196 914.0062270025473 1032.7386357203509zM521.3183130484007 718.5680158505518C521.3183130484007 761.985847721483 556.5192187942258 797.0853099348993 599.8356071327482 797.0853099348993H678.3529012170958C721.770733088027 797.0853099348993 756.8701953014433 761.8844041890743 756.8701953014433 718.5680158505518S721.6692895556182 640.0507217662042 678.3529012170958 640.0507217662042H599.8356071327482C556.5192187942258 640.0507217662041 521.3183130484007 675.1501839796206 521.3183130484007 718.5680158505518zM914.0062270025473 718.5680158505518C914.0062270025473 761.985847721483 949.2071327483724 797.0853099348993 992.523521086895 797.0853099348993H1071.0408151712425C1114.4586470421737 797.0853099348993 1149.5581092555901 761.8844041890743 1149.5581092555901 718.5680158505518S1114.357203509765 640.0507217662042 1071.0408151712425 640.0507217662042H992.523521086895C949.2071327483724 640.0507217662041 914.0062270025473 675.1501839796206 914.0062270025473 718.5680158505518z" />
    <glyph glyph-name="carousel-arrow-left"
      unicode="&#xEA07;"
      horiz-adv-x="2117.818181818182" d="M1576.1454545454546 -235.6363636363635H541.6727272727273L24.4363636363636 640L541.6727272727273 1515.6363636363637H1576.1454545454546L2093.3818181818183 640L1576.1454545454546 -235.6363636363635zM1152.581818181818 301.9636363636364C1132.2181818181818 301.9636363636364 1115.9272727272728 310.1090909090908 1103.709090909091 322.3272727272727L843.0545454545455 595.1999999999999C818.6181818181818 619.6363636363636 818.6181818181818 664.4363636363636 843.0545454545455 688.8727272727273L1115.9272727272728 961.7454545454545C1144.4363636363637 990.2545454545455 1185.1636363636364 990.2545454545455 1213.6727272727273 961.7454545454545C1242.1818181818182 933.2363636363636 1242.1818181818182 892.5090909090909 1213.6727272727273 864L985.6 640L1201.4545454545455 416C1225.8909090909092 391.5636363636363 1225.8909090909092 346.7636363636364 1201.4545454545455 322.3272727272727C1189.2363636363636 306.0363636363636 1168.8727272727272 301.9636363636364 1152.581818181818 301.9636363636364z" />
    <glyph glyph-name="carousel-arrow-right"
      unicode="&#xEA08;"
      horiz-adv-x="2117.818181818182" d="M541.6727272727273 1515.6363636363637H1576.1454545454546L2093.3818181818183 640L1576.1454545454546 -235.6363636363635H541.6727272727273L24.4363636363636 640L541.6727272727273 1515.6363636363637zM965.2363636363636 978.0363636363638C985.6 978.0363636363638 1001.890909090909 969.8909090909092 1014.1090909090908 957.6727272727275L1274.7636363636361 684.8000000000001C1299.1999999999998 660.3636363636364 1299.1999999999998 615.5636363636364 1274.7636363636361 591.1272727272727L1001.890909090909 318.2545454545455C973.381818181818 289.7454545454546 932.6545454545454 289.7454545454546 904.1454545454546 318.2545454545455S875.6363636363636 387.4909090909091 904.1454545454546 416L1128.1454545454544 640L912.290909090909 864C887.8545454545454 888.4363636363636 887.8545454545454 933.2363636363636 912.290909090909 957.6727272727275C928.5818181818182 973.9636363636364 948.9454545454546 978.0363636363638 965.2363636363636 978.0363636363638z" />
    <glyph glyph-name="chevron-left-light"
      unicode="&#xEA09;"
      horiz-adv-x="845.635" d="M829.293 -134.2239999999999C851.08 -112.4379999999999 851.08 -77.0339999999999 829.293 -55.2449999999999L133.449 639.2350000000001L829.293 1335.078C851.082 1356.866 851.082 1392.269 829.293 1414.057C807.504 1435.844 772.102 1435.844 750.313 1414.057L16.34 680.086C5.447 669.194 0 655.576 0 640.597C0 626.98 5.447 612.002 16.34 601.106L750.3100000000001 -132.864C772.102 -156.0119999999999 807.504 -156.0119999999999 829.293 -134.2239999999999L829.293 -134.2239999999999z" />
    <glyph glyph-name="chevron-right-light"
      unicode="&#xEA0A;"
      horiz-adv-x="845.635" d="M16.342 1414.223C-5.445 1392.437 -5.445 1357.033 16.342 1335.244L712.186 640.764L16.342 -55.0789999999999C-5.447 -76.867 -5.447 -112.269 16.342 -134.058C38.131 -155.845 73.533 -155.845 95.322 -134.058L829.295 599.914C840.188 610.807 845.635 624.425 845.635 639.403C845.635 653.02 840.188 667.999 829.295 678.894L95.324 1412.863C73.533 1436.011 38.131 1436.011 16.342 1414.223L16.342 1414.223z" />
    <glyph glyph-name="chevron-right"
      unicode="&#xEA0B;"
      horiz-adv-x="1009.4645909991508" d="M929.0198697990376 568.7359184828756L222.9728842343617 -137.2096235493916C183.6127936597792 -176.5697141239741 119.703368242287 -176.5697141239741 80.3432776677045 -137.2096235493916C40.983187093122 -97.8495329748091 40.983187093122 -33.9401075573169 80.3432776677045 5.4199830172654L714.9740164166429 640.050721766204L80.4447212001132 1274.6814605151426C41.0846306255307 1314.0415510897253 41.0846306255307 1377.9509765072175 80.4447212001132 1417.3110670817998S183.7142371921879 1456.6711576563823 223.0743277667704 1417.3110670817998L929.1213133314462 711.3655250495328C968.37996037362 671.9039909425417 968.37996037362 608.0960090574581 929.0198697990376 568.7359184828756z" />
    <glyph glyph-name="cross"
      unicode="&#xEA0C;"
      horiz-adv-x="1310" d="M851.46 638.84L1276.276 1063.656C1325.026 1112.406 1318.0610000000001 1193.656 1262.348 1247.048C1208.955 1300.441 1125.383 1307.404 1078.955 1260.976L654.139 836.16L229.321 1260.976C180.572 1309.726 99.322 1302.762 45.929 1247.048C-7.464 1193.656 -14.427 1110.085 32 1063.656L456.818 638.84L34.323 216.3440000000001C-14.427 167.595 -7.463 86.3440000000001 48.251 32.952C103.965 -20.441 185.215 -27.404 231.643 19.0239999999999L654.139 441.5189999999998L1076.636 19.0239999999999C1125.384 -29.7260000000001 1206.636 -22.7620000000002 1260.029 32.952C1313.42 86.3440000000001 1320.384 169.916 1273.957 216.3440000000001L851.46 638.84z" />
    <glyph glyph-name="email"
      unicode="&#xEA0D;"
      horiz-adv-x="1843" d="M1548.2 1356.2H294.8C146.4 1356.2 26.2 1236 26.2 1087.7V999.6C26.2 998.7 26.2 997.9 26.2 997V192.4000000000001C26.2 44.1000000000001 146.5 -76.1999999999998 294.8 -76.1999999999998H1548.2C1696.5 -76.1999999999998 1816.8 44.0000000000002 1816.8 192.4000000000001V996.9C1816.8 997.8 1816.8 998.6 1816.8 999.5V1087.6C1816.8 1236 1696.6 1356.2 1548.2 1356.2zM1637.8 192.3C1637.8 142.8 1597.7 102.8 1548.3 102.8H294.8C245.4 102.8 205.3 142.8999999999999 205.3 192.3V830.8L772.5999999999999 452.5999999999999C862.8 392.5 980.3999999999997 392.5 1070.6 452.5999999999999L1637.8999999999999 830.8V192.3zM1637.8 1046L971.2 601.6C941.1 581.6 901.9 581.6 871.9000000000001 601.6L205.2 1046V1087.6C205.2 1137.1 245.3 1177.1 294.7 1177.1H1548.1000000000001C1597.6000000000001 1177.1 1637.6000000000001 1137 1637.6000000000001 1087.6V1046z" />
    <glyph glyph-name="hide-eye"
      unicode="&#xEA0E;"
      horiz-adv-x="1132.8199264081516" d="M1048.1145768468723 1422.4846872346445C1028.0287574299462 1442.5705066515707 992.0163034248513 1442.5705066515707 971.9304840079252 1422.4846872346445C961.8875742994622 1412.4417775261816 956.1052929521652 1398.7469006510046 956.8153976790264 1384.3419190489667V1051.4042456835548C956.8153976790264 1051.4042456835548 951.7432210585904 1048.5638267761108 946.0623832437022 1045.6219643362579C932.3675063685253 1039.8396829889612 911.5715822247382 1034.8689499009338 886.4135861873762 1031.927087461081V1384.4433625813754C886.4135861873762 1399.5584489102744 880.6313048400792 1414.6735352391734 869.1681856778941 1424.7164449476363C857.7050665157091 1434.7593546560995 843.3000849136711 1439.8315312765353 827.4748938579111 1438.4113218228133C800.186583639966 1435.570902915369 779.2892159637702 1411.8331163317291 779.9993206906312 1384.4433625813754V1032.8400792527596C754.8413246532692 1035.6804981602036 733.9439569770734 1040.0425700537785 720.3505236343052 1046.5349561279363C714.5682422870083 1049.3753750353806 711.0177186527031 1050.8970280215112 709.5975091989811 1052.3172374752332V1384.4433625813754C709.5975091989811 1399.5584489102744 703.8152278516841 1414.6735352391734 692.3521086894991 1424.7164449476363C680.888989527314 1435.4694593829604 665.063798471554 1439.8315312765353 650.658816869516 1438.4113218228133C622.6604019247098 1435.570902915369 602.473138975375 1411.8331163317291 603.1832437022362 1384.4433625813754V870.3275403339935C603.1832437022362 830.7645626945936 618.298330031135 793.4333427681855 645.5866402490801 766.0435890178317C661.4118313048401 750.2183979620717 680.7875459949053 738.0451740730256 708.88740447212 727.1907161052928L691.642003962638 20.433625813756C690.9318992357769 -25.6217378998022 701.6849136711011 -66.604924992924 724.002490801019 -98.9654118313049C749.870591565242 -136.398075290122 790.8537786583639 -158.6142088876311 833.2571752052081 -158.6142088876311C875.6605717520521 -158.6142088876311 917.3538635720352 -136.2966317577131 942.5118596093972 -98.9654118313049C964.829436739315 -66.604924992924 975.5824511746392 -25.6217378998022 974.8723464477782 20.433625813756L957.6269459382962 727.1907161052928C985.6253608831022 738.6538352674779 1005.102519105576 750.9285026889328 1020.927710161336 766.0435890178317C1048.2160203792812 792.6217945089159 1063.33110670818 830.7645626945936 1063.33110670818 870.3275403339935V1384.4433625813754C1063.229663175771 1398.7469006510046 1057.548825360883 1412.4417775261816 1048.1145768468723 1422.4846872346445zM956.1052929521652 869.6174356071326C956.1052929521652 854.5023492782336 952.55476931786 848.7200679309367 945.3522785168412 841.6190206623264C938.8598924426832 835.1266345881686 923.7448061137844 823.6635154259834 889.9641098216812 815.0408151712423C866.2263232380412 808.5484290970844 849.6910274554201 787.0424002264363 849.6910274554201 762.5945089159352L867.6465326917632 18.3033116331726C867.6465326917632 -3.9128219643367 862.5743560713273 -24.7087461081237 853.2415510897252 -38.4036229833007C845.3289555618453 -49.8667421454857 840.2567789414095 -52.0984998584774 832.3441834135294 -52.0984998584774C824.4315878856495 -52.0984998584774 818.6493065383524 -49.9681856778945 810.7367110104725 -38.4036229833007C801.4039060288704 -25.4188508349848 796.3317294084346 -3.9128219643367 797.0418341352956 17.6946504387201L814.9973393716388 762.594508915935C814.9973393716388 787.042400226436 799.1721483158788 809.3599773563539 774.7242570053777 815.0408151712421C740.9435607132748 823.6635154259832 725.1183696575148 835.1266345881681 719.3360883102177 841.6190206623262C712.1335975091988 848.8215114633452 708.5830738748937 855.3138975375032 708.5830738748937 869.6174356071324V936.4687234644776C742.3637701669967 927.1359184828754 783.3469572601188 922.0637418624397 832.2427398811207 922.0637418624397C881.1385225021227 922.0637418624397 922.8318143221056 926.4258137560143 955.9024058873476 936.4687234644776V869.6174356071326zM475.0600622700255 1316.7805264647607H476.4802717237475C435.5985281630342 1393.7761675629774 370.8775544862723 1438.3098782904046 300.3742994622134 1438.3098782904046S165.9616190206624 1393.7761675629774 124.1668836682706 1316.7805264647607C88.2558731955845 1249.9292386074155 69.5902632323804 1162.9921313331445 69.5902632323804 1065.9106708180016C69.5902632323804 962.3368242287006 88.2558731955845 823.5620718935747 175.2944240022644 743.1173506934616L158.0490234927824 21.2451740730257C157.3389187659213 -24.8101896405321 168.0919332012454 -65.793376733654 190.4095103311633 -98.1538635720351C216.2776110953864 -135.586527030852 257.2607981885084 -157.8026606283611 299.6641947353524 -157.8026606283611C342.0675912821965 -157.8026606283611 383.0507783753185 -135.4850834984431 408.9188791395415 -98.1538635720351C431.2364562694594 -65.793376733654 441.9894707047835 -24.8101896405321 441.2793659779224 21.2451740730257L424.0339654684404 743.1173506934617C511.0725162751203 822.9534106991226 529.7381262383244 962.4382677611096 529.7381262383244 1065.9106708180016C529.7381262383244 1162.9921313331445 511.0725162751203 1249.9292386074155 475.0600622700255 1316.7805264647607zM342.0675912821964 807.7368808378147C326.9525049532975 797.6939711293517 318.3298046985565 780.4485706198697 318.3298046985565 761.6815171242569L317.6196999716955 763.1017265779789L335.5752052080385 18.2018681007644C335.5752052080385 -4.1157090291535 330.5030285876026 -24.9116331729408 321.1702236060006 -38.6065100481176C313.2576280781206 -50.0696292103028 308.1854514576847 -52.3013869232946 300.2728559298047 -52.3013869232946C292.3602604019247 -52.3013869232946 286.5779790546278 -50.1710727427117 279.3754882536088 -38.6065100481176C270.0426832720068 -24.9116331729408 264.9705066515709 -4.1157090291535 264.9705066515709 17.4917633739033L282.9260118879139 762.391621851118C282.9260118879139 781.057231814322 275.0134163600339 797.5925275969431 259.188225304274 808.4469855646759C210.292442683272 840.8074724030567 176.511746391169 946.5116331729408 176.511746391169 1065.0991225587318C176.511746391169 1142.8048683838097 191.6268327200679 1216.047098782904 218.915142938013 1265.7544296631756C241.9428247947919 1309.5780356637417 269.231135012737 1330.4754033399377 300.881517124257 1330.4754033399377S359.1101047268609 1309.5780356637417 382.847891310501 1265.7544296631756C409.426096801585 1215.4384375884515 425.251287857345 1142.0947636569485 425.251287857345 1064.389017831871C425.4541749221624 947.9318426266626 390.2532691763374 840.0973676761957 342.0675912821964 807.7368808378147z" />
    <glyph glyph-name="map"
      unicode="&#xEA0F;"
      horiz-adv-x="1610.9232946504385" d="M1182.8315878856495 1112.1689215963768C974.3651287857344 1320.6353806962918 636.4567223322954 1320.6353806962918 427.9902632323804 1112.1689215963768S219.5238041324653 565.7940560430227 427.9902632323804 357.3275969431077L751.5951316161901 33.7227285592978C781.3180866119444 3.9997735635436 829.5037645060853 3.9997735635436 859.3281630342485 33.7227285592978L1182.8315878856495 357.226153410699C1391.2980469855645 565.7940560430228 1391.2980469855645 903.7024624964617 1182.8315878856495 1112.1689215963768zM320.1557882819134 1220.0033965468438C588.1696009057457 1488.0172091706763 1022.6522502122842 1488.0172091706763 1290.6660628361167 1220.0033965468438C1558.6798754599492 951.9895839230114 1558.6798754599492 517.5069346164731 1290.6660628361167 249.4931219926407L1023.5652420039628 -17.5062553071045C1021.1305972261536 -19.9409000849139 1024.57967732805 -16.4918199830174 1022.2464760826495 -18.8250212284179L967.061194452307 -74.0103028587605C877.7908859326354 -163.2806113784322 733.0309651853952 -163.3820549108407 643.6592131333147 -74.0103028587605L320.0543447495049 249.5945655250494C52.1419756580809 517.5069346164731 52.1419756580809 951.9895839230114 320.1557882819134 1220.0033965468438zM805.4616473252192 887.2686102462495C721.2635154259835 887.2686102462495 652.9920181149165 818.9971129351825 652.9920181149165 734.7989810359467C652.9920181149165 650.6008491367108 721.2635154259835 582.3293518256438 805.4616473252192 582.3293518256438S957.9312765355222 650.6008491367108 957.9312765355222 734.7989810359467C957.9312765355222 818.9971129351825 889.6597792244551 887.2686102462495 805.4616473252192 887.2686102462495zM500.4209453722049 734.7989810359467C500.4209453722049 903.1952448344182 636.9639399943391 1039.8396829889612 805.4616473252192 1039.8396829889612C973.8579111236908 1039.8396829889612 1110.5023492782339 903.296688366827 1110.5023492782339 734.7989810359467C1110.5023492782339 566.4027172374751 973.9593546560995 429.7582790829322 805.4616473252192 429.7582790829322C636.9639399943391 429.7582790829322 500.4209453722049 566.3012737050664 500.4209453722049 734.7989810359467z" />
    <glyph glyph-name="media"
      unicode="&#xEA10;"
      horiz-adv-x="1584.5479762241719" d="M1034.0139258420604 961.2209453722048C1034.0139258420604 916.890121709595 998.1029153693744 880.8776677045001 953.670648174356 880.8776677045001H952.8590999150862C908.5282762524766 880.8776677045001 872.5158222473817 916.7886781771862 872.5158222473817 961.2209453722048C872.5158222473817 1005.5517690348144 908.4268327200678 1041.5642230399092 952.8590999150862 1041.5642230399092H953.670648174356C998.1029153693744 1041.5642230399094 1034.0139258420604 1005.5517690348144 1034.0139258420604 961.2209453722048zM1515.0591565242003 1121.9075007076137V479.4656099632039C1515.0591565242003 479.3641664307952 1515.0591565242003 479.3641664307952 1515.0591565242003 479.2627228983865V158.0924992923858C1515.0591565242003 24.998584772148 1407.2246815737333 -82.835890178319 1274.1307670534954 -82.835890178319H310.4172091706765C177.3232946504387 -82.835890178319 69.4888196999717 24.998584772148 69.4888196999717 158.0924992923858V318.6776110953861C69.4888196999717 318.6776110953861 69.4888196999717 318.6776110953861 69.4888196999717 318.6776110953861V1121.9075007076137C69.4888196999717 1255.0014152278513 177.3232946504387 1362.8358901783186 310.4172091706765 1362.8358901783186H1274.1307670534954C1407.2246815737333 1362.8358901783186 1515.0591565242003 1254.8999716954427 1515.0591565242003 1121.9075007076137zM1354.4740447212 446.0906878007356L1250.5958675346728 549.9688649872628C1219.249816020379 581.3149165015566 1168.4266062836116 581.3149165015566 1136.979111236909 549.9688649872628L1066.3744126804415 479.3641664307952L1170.2525898669687 375.4859892442683C1201.5986413812625 344.1399377299743 1201.5986413812625 293.3167279932068 1170.2525898669687 261.8692329465044S1088.0833286159072 230.5231814322103 1056.6358335692048 261.8692329465044L896.0507217662044 422.4543447495046C896.0507217662044 422.4543447495046 896.0507217662044 422.4543447495046 896.0507217662044 422.4543447495046C896.0507217662044 422.4543447495046 896.0507217662044 422.4543447495046 896.0507217662044 422.4543447495046L688.395810925559 630.2106991225586C657.0497594112652 661.5567506368524 606.2265496744976 661.5567506368524 574.7790546277951 630.2106991225586L229.9724879705633 285.404132465327V158.092499292386C229.9724879705633 113.7616756297762 265.8834984432494 77.7492216246815 310.3157656382678 77.7492216246815H1274.0293235210868C1318.3601471836967 77.7492216246815 1354.3726011887914 113.6602320973677 1354.3726011887914 158.092499292386V446.0906878007356zM1354.4740447212 1121.9075007076137C1354.4740447212 1166.2383243702234 1318.5630342485138 1202.2507783753183 1274.1307670534954 1202.2507783753183H310.4172091706765C266.0863855080668 1202.2507783753183 230.073931502972 1166.339767902632 230.073931502972 1121.9075007076137V512.6376450608547L461.2637418624399 743.8274554203225C555.4033399377299 837.9670534956126 707.8729691480329 837.9670534956126 802.0125672233229 743.8274554203225L952.8590999150862 592.9809227285592L1023.4637984715538 663.5856212850268C1114.357203509765 754.479026323238 1259.8272289838665 757.5223322954995 1354.4740447212 672.8169827342202V1121.9075007076137z" />
    <glyph glyph-name="note"
      unicode="&#xEA11;"
      horiz-adv-x="1295.6" d="M961.1 326.5999999999999C961.1 283.3999999999999 926 248.3 882.8000000000001 248.3H412.8000000000001C369.6000000000001 248.3 334.5000000000001 283.3999999999999 334.5000000000001 326.5999999999999S369.6000000000001 404.8999999999999 412.8000000000001 404.8999999999999H882.9000000000001C926.1 405 961.1 369.9000000000001 961.1 326.5999999999999zM334.5 640.1C334.5 596.9 369.6 561.8000000000001 412.8 561.8000000000001H882.9000000000001C926.1000000000003 561.8000000000001 961.2 596.9000000000001 961.2 640.1S926.1 718.4 882.9000000000001 718.4H412.8C369.5 718.4 334.5 683.3 334.5 640.1zM1274.6 842.6V91.5999999999999C1274.6 -38.2 1169.3999999999999 -143.4000000000001 1039.6 -143.4000000000001H256C126.2 -143.4000000000001 21 -38.2 21 91.5999999999999V1188.4C21 1318.2 126.2 1423.4 256 1423.4H693.6C735.2 1423.4 775 1406.9 804.4 1377.5L1228.6 953.3C1258.1 924 1274.6 884.2 1274.6 842.6zM1117.9 842.6L693.7 1266.7H256C212.8 1266.7 177.7 1231.6 177.7 1188.4V91.5C177.7 48.3 212.8 13.2 256 13.2H1039.4C1082.6000000000001 13.2 1117.7 48.3 1117.7 91.5L1117.9 842.6L1117.9 842.6z" />
    <glyph glyph-name="phone"
      unicode="&#xEA12;"
      horiz-adv-x="1613.256495895839" d="M39.7658647042174 1176.7884517407301C39.7658647042174 1303.8971978488535 142.7310500990659 1406.862383243702 269.8397962071894 1406.862383243702H521.3183130484007C587.358052646476 1406.862383243702 645.9924143787149 1364.6618737616755 666.788338522502 1301.969770733088L781.6224172091706 957.3660911406733C805.7659779224454 884.935409000849 772.9997169544296 805.8094537220492 704.7282196433625 771.7244268327199L600.7485989244268 719.6838947070478C668.7157656382677 600.8935182564392 767.6232097367676 502.087517690348 886.4135861873762 434.0189074440985L938.3526747806396 538.0999716954427C972.4377016699688 606.3714690065098 1051.6651004811774 639.1377299745258 1123.9943390885933 614.9941692612508L1468.5980186810075 500.1600905745822C1531.1886781771866 479.2627228983865 1573.4906311916218 420.6283611661475 1573.4906311916218 354.6900651004808V103.2115482592692C1573.4906311916218 -23.7957543164455 1470.5254457967733 -126.8623832437026 1343.41669968865 -126.8623832437026H1266.7253891876594C589.0825926974245 -126.8623832437026 39.7658647042177 422.4543447495044 39.7658647042177 1100.0971412397391V1176.7884517407301zM269.8397962071894 1253.4797622417207C227.4363996603453 1253.4797622417207 193.1484857061987 1219.191848287574 193.1484857061987 1176.7884517407301V1100.0971412397394C193.1484857061987 507.1596943107838 673.7879422587037 26.5202377582789 1266.7253891876592 26.5202377582789H1343.4166996886497C1385.7186527030851 26.5202377582789 1420.1080101896403 60.8081517124256 1420.1080101896403 103.2115482592694V354.690065100481L1075.5043305972258 469.5241437871496L988.9729974525897 296.4614774978773C970.6117180866117 259.6374752335128 926.3823379564108 243.9137277101613 888.8482309651852 260.8547976224172C684.33806962921 353.0669685819419 519.5937729974523 517.7098216812908 427.3816020379279 722.3214265496746C410.4405321256721 759.8555335409001 426.1642796490233 803.9834701386924 462.9882819133879 822.4461930370791L636.0509482026605 908.9775261817152L521.3183130484007 1253.4797622417207H269.8397962071894z" />
    <glyph glyph-name="size-changer"
      unicode="&#xEA13;"
      horiz-adv-x="1270" d="M369.9 533.4H114.8L59.9 411.0999999999999H9.5L218.8 868.9999999999999H266.6L475.9 411.0999999999999H424.9000000000001L369.9 533.4zM352.2 572.6L242.3 818.6L132.4 572.6H352.2zM748 502.7H556.9L515.6999999999999 411H478L634.8 754.1H670.5999999999999L827.3999999999999 411H789.1999999999998L748 502.7zM734.8 532.1L652.4 716.4000000000001L570.1 532.1000000000001H734.8zM1258.5 620.4H1136.8V501.3H1095.6V620.4H974V659H1095.7V778.7H1136.9V659H1258.6000000000001V620.4z" />
    <glyph glyph-name="star-full"
      unicode="&#xEA14;"
      horiz-adv-x="1653" d="M1604.2 827.9L1045 878.6L826.5 1429.9L608 878.6L48.9 827.9L473.5 434.5999999999999L345.9 -149.9000000000001L826.5 160.3L1307.1 -149.9000000000001L1179.6 434.5999999999999z" />
    <glyph glyph-name="star"
      unicode="&#xEA15;"
      horiz-adv-x="1816.8" d="M1746.8 829.5L1144 881.5L908.4 1436.5L672.8 880.6L70 829.5L527.8 432.9000000000001L390.3 -156.5L908.4 156.2000000000001L1426.5 -156.5L1289.8 432.9000000000001L1746.8 829.5zM908.4 313L593.2 122.7000000000001L677 481.5L398.7 723L765.9 754.9L908.4 1092.8L1051.8 754L1419 722.1L1140.7 480.5999999999999L1224.5 121.8L908.4 313z" />
    <glyph glyph-name="sun"
      unicode="&#xEA16;"
      horiz-adv-x="1740.4666855363712" d="M301.6930653835267 1094.822077554486C270.2455703368242 1126.2695726011887 270.2455703368242 1177.0927823379561 301.6930653835267 1208.5402773846588C333.1405604302293 1239.8863288989526 383.9637701669969 1239.8863288989526 415.4112652136994 1208.5402773846588L472.3210868949901 1151.6304557033682C503.7685819416926 1120.1829606566655 503.7685819416926 1069.359750919898 472.3210868949901 1037.9122558731954C440.8735918482876 1006.5662043589016 390.0503821115199 1006.5662043589016 358.6028870648174 1037.9122558731954L301.6930653835267 1094.822077554486zM307.3739031984149 639.9492782337956C307.3739031984149 684.3815454288139 271.3614491933201 720.3939994339087 226.9291819983017 720.3939994339087H146.4844607981885C102.0521936031701 720.3939994339087 66.0397395980753 684.3815454288139 66.0397395980753 639.9492782337956C66.0397395980753 595.5170110387771 102.0521936031701 559.5045570336823 146.4844607981885 559.5045570336823H226.9291819983017C271.3614491933201 559.606000566091 307.3739031984149 595.6184545711858 307.3739031984149 639.9492782337956zM870.2840645343899 1202.8594395697705C914.7163317294084 1202.8594395697705 950.7287857345032 1238.8718935748655 950.7287857345032 1283.3041607698838V1363.748881969997C950.7287857345032 1408.1811491650153 914.7163317294084 1444.1936031701102 870.2840645343899 1444.1936031701102C825.8517973393716 1444.1936031701102 789.8393433342768 1408.1811491650153 789.8393433342768 1363.748881969997V1283.3041607698838C789.8393433342768 1238.8718935748655 825.8517973393716 1202.8594395697705 870.2840645343899 1202.8594395697705zM1381.9652420039624 1038.0136994056043L1438.7736201528444 1094.9235210868949C1470.221115199547 1126.2695726011887 1470.221115199547 1177.194225870365 1438.7736201528444 1208.6417209170675C1407.326125106142 1239.9877724313612 1356.5029153693745 1239.9877724313612 1325.0554203226718 1208.6417209170675L1268.2470421737899 1151.7318992357768C1236.7995471270874 1120.2844041890744 1236.7995471270874 1069.4611944523067 1268.2470421737899 1038.0136994056043C1299.6945372204925 1006.5662043589016 1350.6191904896689 1006.5662043589016 1381.9652420039624 1038.0136994056043zM1593.9822247381826 720.3939994339087H1513.5375035380696C1469.1052363430513 720.3939994339087 1433.0927823379564 684.3815454288139 1433.0927823379564 639.9492782337956C1433.0927823379564 595.5170110387771 1469.1052363430513 559.5045570336823 1513.5375035380696 559.5045570336823H1593.9822247381826C1638.4144919332011 559.5045570336823 1674.4269459382958 595.5170110387771 1674.4269459382958 639.9492782337956C1674.3255024058872 684.3815454288139 1638.3130484007925 720.3939994339087 1593.9822247381826 720.3939994339087zM1272.3047834701385 639.9492782337956C1272.3047834701385 417.8893857911121 1092.3439569770733 237.9285592980471 870.28406453439 237.9285592980471S468.2633455986414 417.8893857911123 468.2633455986414 639.9492782337956C468.2633455986414 862.0091706764788 648.2241720917068 1041.969997169544 870.28406453439 1041.969997169544S1272.3047834701385 862.0091706764788 1272.3047834701385 639.9492782337956zM1111.516784602321 639.9492782337956C1111.516784602321 773.1446362864419 1003.4794225870367 881.1819983017264 870.28406453439 881.1819983017264S629.0513444664591 773.2460798188507 629.0513444664591 639.9492782337956C629.0513444664591 506.7539201811492 737.0887064817435 398.7165581658647 870.28406453439 398.7165581658647S1111.516784602321 506.7539201811489 1111.516784602321 639.9492782337956zM358.5014435324087 241.9863005943958L301.6930653835267 185.0764789131051C270.2455703368242 153.6289838664025 270.2455703368242 102.805774129635 301.6930653835267 71.3582790829325C333.1405604302293 40.0122275686385 383.9637701669969 40.0122275686385 415.4112652136994 71.3582790829325L472.2196433625813 128.2681007642232C503.6671384092838 159.7155958109256 503.6671384092838 210.5388055476931 472.2196433625813 241.9863005943958C440.8735918482876 273.3323521086893 389.9489385791112 273.3323521086893 358.5014435324087 241.9863005943958zM1381.9652420039624 241.9863005943958C1350.51774695726 273.3323521086895 1299.5930936880836 273.3323521086895 1268.2470421737899 241.9863005943958C1236.7995471270874 210.5388055476931 1236.7995471270874 159.7155958109256 1268.2470421737899 128.2681007642232L1325.0554203226718 71.4597226153412C1356.5029153693745 40.0122275686385 1407.326125106142 40.0122275686385 1438.7736201528444 71.4597226153412C1470.221115199547 102.9072176620437 1470.221115199547 153.7304273988111 1438.7736201528444 185.1779224455138L1381.9652420039624 241.9863005943958zM870.2840645343899 77.1405604302292C825.8517973393716 77.1405604302292 789.8393433342768 41.1281064251343 789.8393433342768 -3.304160769884V-83.748881969997C789.8393433342768 -128.1811491650155 825.8517973393716 -164.0921596377016 870.2840645343899 -164.0921596377016C914.7163317294084 -164.0921596377016 950.7287857345032 -128.0797056326069 950.7287857345032 -83.748881969997V-3.304160769884C950.6273422020944 41.1281064251343 914.7163317294084 77.1405604302292 870.2840645343899 77.1405604302292z" />
    <glyph glyph-name="user-group"
      unicode="&#xEA17;"
      horiz-adv-x="1890.6031135012736" d="M945.2508349844323 1213.7138975375033C854.763204075856 1213.7138975375033 781.3180866119444 1140.3702236060003 781.3180866119444 1049.7811491650154S854.6617605434474 885.8484007925274 945.2508349844323 885.8484007925274S1109.1835833569203 959.1920747240304 1109.1835833569203 1049.7811491650154S1035.8399094254175 1213.7138975375033 945.2508349844323 1213.7138975375033zM617.4867817718653 1049.7811491650154C617.4867817718653 1230.8578545145765 764.27557316728 1377.6466459099913 945.3522785168412 1377.6466459099913C1126.4289838664024 1377.6466459099913 1273.2177752618172 1230.8578545145765 1273.2177752618172 1049.7811491650154S1126.4289838664024 721.9156524200395 945.3522785168412 721.9156524200395C764.2755731672798 721.9156524200395 617.4867817718653 868.7044438154542 617.4867817718653 1049.7811491650154zM371.5876592131333 885.8484007925274C326.3438437588452 885.8484007925274 289.6212850268893 849.1258420605716 289.6212850268893 803.8820266062835C289.6212850268893 758.6382111519954 326.3438437588452 721.9156524200396 371.5876592131333 721.9156524200396S453.5540333993773 758.6382111519955 453.5540333993773 803.8820266062835C453.5540333993773 849.2272855929803 416.8314746674214 885.8484007925274 371.5876592131333 885.8484007925274zM125.6885366544014 803.8820266062834C125.6885366544014 939.7149165015564 235.7547693178602 1049.7811491650154 371.5876592131333 1049.7811491650154S617.4867817718653 939.7149165015564 617.4867817718653 803.8820266062834C617.4867817718653 668.0491367110103 507.4205491084065 557.9829040475515 371.5876592131334 557.9829040475515S125.6885366544014 668.1505802434191 125.6885366544014 803.8820266062834zM1519.0154542881403 885.8484007925274C1473.7716388338524 885.8484007925274 1437.0490801018964 849.1258420605716 1437.0490801018964 803.8820266062835C1437.0490801018964 758.6382111519954 1473.7716388338524 721.9156524200396 1519.0154542881403 721.9156524200396S1600.9818284743842 758.6382111519955 1600.9818284743842 803.8820266062835C1600.9818284743842 849.2272855929803 1564.2592697424284 885.8484007925274 1519.0154542881403 885.8484007925274zM1273.1163317294083 803.8820266062834C1273.1163317294083 939.7149165015564 1383.182564392867 1049.7811491650154 1519.0154542881403 1049.7811491650154S1764.9145768468725 939.7149165015564 1764.9145768468725 803.8820266062834C1764.9145768468725 668.0491367110103 1654.8483441834137 557.9829040475515 1519.0154542881403 557.9829040475515S1273.1163317294083 668.1505802434191 1273.1163317294083 803.8820266062834zM945.2508349844323 476.1179733937163C807.3890744409849 476.1179733937163 689.10591565242 390.9054061703933 640.7173506934615 269.9847155392017C625.7037078969713 232.4506085479761 617.3853382394564 191.3659779224454 617.3853382394564 148.2524766487404V66.2861024624965H1273.1163317294083V148.2524766487404C1273.1163317294083 191.4674214548541 1264.7979620718934 232.4506085479761 1249.7843192754033 269.9847155392017C1201.3957543164447 390.9054061703933 1083.2140390602885 476.1179733937163 945.2508349844323 476.1179733937163zM1437.0490801018962 66.2861024624965H1682.9482026606283V148.2524766487404C1682.9482026606283 238.7401075573166 1609.6045287291254 312.1852250212283 1519.0154542881403 312.1852250212283C1481.5827908293234 312.1852250212283 1447.1934333427682 299.7076705349559 1419.600792527597 278.6074157939427C1430.9624681573735 237.0155675063684 1437.0490801018964 193.2934050382112 1437.0490801018964 148.2524766487404V66.2861024624965zM1349.1989810359466 428.7438437588451C1260.4358901783187 556.359807529012 1112.6326634588168 640.0507217662041 945.2508349844323 640.0507217662041S630.0657797905461 556.359807529012 541.302688932918 428.7438437588451C491.7982451174638 458.7711293518255 433.6711010472685 476.1179733937163 371.4862156807245 476.1179733937163C190.4095103311632 476.1179733937163 43.6207189357486 329.3291819983017 43.6207189357486 148.2524766487404V-15.6802717237476C43.6207189357486 -60.9240871780355 80.3432776677044 -97.6466459099915 125.5870931219926 -97.6466459099915H1764.8131333144636C1810.0569487687517 -97.6466459099915 1846.7795075007075 -60.9240871780355 1846.7795075007075 -15.6802717237476V148.2524766487404C1846.7795075007075 329.3291819983017 1699.9907161052927 476.1179733937163 1518.9140107557316 476.1179733937163C1456.830568921596 476.1179733937163 1398.703424851401 458.7711293518255 1349.1989810359466 428.7438437588451zM471.0023209736767 278.6074157939427C443.4096801585055 299.7076705349559 408.9188791395415 312.1852250212283 371.5876592131333 312.1852250212283C281.1000283045571 312.1852250212283 207.6549108406454 238.8415510897253 207.6549108406454 148.2524766487404V66.2861024624965H453.5540333993773V148.2524766487404C453.5540333993773 193.2934050382112 459.6406453439004 237.0155675063684 471.0023209736767 278.6074157939427z" />
  </font>
</defs>
</svg>
